Taylor swift red shirts. Nov 5, 2012 ... Music video by Taylor Swift performing Red (Liv...

Nov 10, 2021 · November 10, 2021. Photograph by Beth Gar

Shop taylor swift t-shirts sold by independent artists from around the globe. Buy the highest quality taylor swift t-shirts on the internet. Prices increase in 00 H : 00 M : 00 S Up to 35% off sitewide! $16 tees and more. ... taylor swift reputation, 1989, red Graphic tees. Available in Plus Size T-Shirt. Back to Design. Got A Long List Of Starbucks Lovers T …Taylor Swift Red T-Shirts. 10,788 Results. Cowboy Like Me Taylor Swift Penguin Classic T-Shirt. By bbboboo. From $19.84. (taylor's version) Classic T-Shirt. By 3rdgilmoregirl. …High quality Taylor Swift-inspired gifts and merchandise. T-shirts, posters, stickers, home decor, and more, designed and sold by independent artists around the world. All orders are custom made and most ship worldwide within 24 hours.TAYLOR SWIFT OFFICIAL RED T-SHIRT YOUTH SMALL BLACK SHIRT. Opens in a new window or tab. New (Other) · Taylor Swift. $18.99. Buy It Now +$5.85 shipping. Last one. Taylor Swift Shirt Womens Small Speak Now Tour 2011 Double Sided Graphic Tee Y2K. Opens in a new window or tab. Pre-Owned · Gildan. $64.95. Top Rated Plus. or Best … Taylr Swft The Eras Tour Concert T-Shirt, Taylor Swift Shirt, Taylor Swift Sweatshirt,Ts Merch Shirt, Eras Tour Concert Shirt, Swiftie Shirt. (1.6k) $9.49. $18.98 (50% off) Sale ends in 23 hours. Collection 1989 (Taylor's Version) Collection is empty. Shop the Official Taylor Swift Online store for exclusive Taylor Swift products including shirts, hoodies, music, accessories, phone cases, tour merchandise and old Taylor merch! By ALEXZIMMERMAN. From $19.84. Erastour Newver 2904 Taylor Swift The Eras Tour Shirt, Swiftie Merch T-Shirt, Back And Front Shirt, Swiftie Eras Tour, Taylor Swift Fan, Vintage Gift, TS Tshirt Classic T-Shirt. By GunHumber. From $20.66. The Eras Tour from "Saw" Saga Classic T-Shirt. Shop high-quality unique Taylor Swift Quotes T-Shirts designed and sold by independent artists. Available in a range of colours and styles for men, women, and everyone. ... taylor swift, red, all too well, taylor swift quotes, taylor swift lyrics, reputation, reputation tour, dancing, dance, danced, danced around the kitchen in …Buy the highest quality all too well taylor swift t-shirts on the internet. Prices increase in 00 H : 00 M : 00 S Up to 35% off sitewide! $16 tees and more. Shop Now Welcome Guest! ... Tags: taylors version, red, taylor swift, all too well lyrics, lyric merch Graphic tees. Available in Plus Size T-Shirt. Back to Design. All Too Well T-Shirt. by ...Oct 22, 2022 · Swiftie Krista Holtzman, 28, told TODAY that her favorite hidden lyric messages were “Should’ve Said No” (the message is “Sam Sam Sam Sam Sam Sam”) and “All Too Well” (“Maple Latte ...Nov 5, 2012 ... Music video by Taylor Swift performing Red (Live from New York City). © 2012 Big Machine Records, LLC ▻Exclusive Merch: ...Ew Shirt, Taylor Swift Eras Tour Shirt, Feeling 22 Shirt, Red taylors Version, Eras Tour Outfit (82) $ 29.99. Add to Favorites ... ORIGINAL DESIGNER | A Lot of Magic Going On at the Moment T-Shirt, Red Album Taylor Shirt, Eras Tour Shirt, I’m Feeling 22 Shirt (1.5k) $ 28.00. Add to Favorites ...Welcome to Taylor Swift Shirt - Your premier online store for high-quality POD t-shirts and apparel. Indulge in a curated collection of stylish designs that perfectly encapsulate …Red Album T-Shirt, Eras Tour Shirt, Taylor Swiftie Shirt, Red Track List Taylor Swift Shirt, Taylor Swiftie Fan Sweatshirt (331) $ 22.40. Add to Favorites 1989 Taylor The Eras Tour PNG, Eras Tour Png, Taylor Swiftie png, TS Concert PNG, Swiftie png, Eras Concert png (54) $ 2.49. Digital Download ... Vintage 90s Graphic Style Taylor Swift Shirts, …Taylor released Red (Taylor’s Version) in 2021, along with the iconic All too Well (The Short Film) featuring Sadie Sink. A music video directed by Blake Lively for “I Bet You Think About Me” followed. I’ve …Ew Shirt, Taylor Swift Eras Tour Shirt, Feeling 22 Shirt, Red taylors Version, Eras Tour Outfit (82) £ 29.29 ... Super Bowl 2024 Long Sleeve Tee - Taylor Swift Red Era Inspired - Kansas City Chiefs "Who's the 49ers Anyway? Ew."High quality Taylor Swift-inspired gifts and merchandise. T-shirts, posters, stickers, home decor, and more, designed and sold by independent artists around the world. All orders are custom made and most ship worldwide within 24 hours.Album 1989 Taylor Vintage T-shirt, Swift Taylor Inspired Shirt, Swift Taylor Vintage Merch, Taylor Shirt Clip gloss. 5 out of 5 stars "I really loved this shirt! It was a really good quality, and i liked it and it’s a funny shirt. It’s a bit big( Which is fine) so size down but overall a cute shirt" Taylor Rage Feminine Rage Shirt ...Shopping. 10 Taylor Swift. Red. Album-Inspired Merch Pieces To Shop. From the ring to the camel coat. by Bustle Editors. November 11, 2021. Taylor Swift/Republic. Taylor Swift’s Red album is …Browntrout 2024 Wall Calendar 12"x12" Taylor Swift. BrownTrout. 26. $16.99. When purchased online. of 3. Page 1 Page 2 Page 3. Get Taylor Swift from Target at great low prices. Choose from Same Day Delivery, Drive Up or Order Pickup.Jun 7, 2023 · The sequined shirts are all custom by Ashish, who also made the original shirt in the “22” music video. Once the t-shirt is removed, a beautiful red-to-black ombré bodysuit is revealed ...Filename E:\own\RED\Taylor Swift - RED (Taylor's Version) {B0034504-02}\CD 2\14 - Taylor Swift - All Too Well (10 minute version) (Taylor’s version) (from The Vault).wav Peak level 100.0 % Extraction speed 4.7 X Track quality 100.0 % Test CRC 1660D752 Copy CRC 1660D752 Track not present in AccurateRip database Copy … Red (Taylor’s Version) Cardigan quantity. Add to cart. Estimated arrival. Mar 12. Order placed. ... Taylor Swift Shirts; Taylor Swift Sweaters/Hoodies; Taylor Swift ... Apr 3, 2023 · Kevin Mazur/Getty, Omar Vega/TAS23/Getty, John Shearer/Getty. During her March 31 concert in Arlington, Texas, Swift added more fuel to the fire by debuting a third shirt during her "22 ... Jul 5, 2021 · 作词 : Taylor Swift. 作曲 : Taylor Swift. Part Ⅰ. Loving him is like driving a new Maserati down a deed end street 爱他就像是开着一辆崭新的玛莎拉蒂冲进死胡同. Faster than the wind, passionate as sin, ending … Red Album T-Shirt, Eras Tour Shirt, Taylor Swiftie Shirt, Red Track List Taylor Swift Shirt, Taylor Swiftie Fan Sweatshirt 4.8 (339) · a d ... Taylor Swift Red TV Crochet Pattern (124) $ 5.51. Digital Download Add to Favorites ... Taylor Eras Youth Shirt, Swift Youth Tshirt, Eras tour girls shirt, Eras tour youth, Taylor girls tshirt, Taylor youth fan merch (49) Sale Price $25.91 $ 25.91 $ 34.55 Original Price $34.55 ... Rindow Taylor Poster for Wall Art,8 x 12 inch Canvas Swift Poster Set of 6 Pc,Music Taylor Poster AlbumReputation,Folklore, Lover, 1989, Red Taylor Merch Flag for Boys and Girls (Unframed) 100+ bought in past month. $1499. Save 5% with coupon. FREE delivery Mon, Dec 18 on $35 of items shipped by Amazon. It's a Taylor Thing you wouldn't Understand Funny Taylor T-Shirt. 39. 50+ bought in past month. £1749. Was: £17.99. Save 5% on any 4 qualifying items. FREE delivery Fri, 16 Feb on your first eligible order to UK or Ireland. Climate Pledge Friendly. +7 colours/patterns.The Tortured Poets Department Collector's Edition Deluxe CD + Bonus Track "The Black Dog" + Standard Digital Album. $34.99 $0.00.Collection 1989 (Taylor's Version) Collection is empty. Shop the Official Taylor Swift Online store for exclusive Taylor Swift products including shirts, hoodies, music, accessories, phone cases, tour merchandise and old Taylor merch!Buy the highest quality all too well taylor swift t-shirts on the internet. Prices increase in 00 H : 00 M : 00 S Up to 35% off sitewide! $16 tees and more. Shop Now Welcome Guest! ... Tags: taylors version, red, taylor swift, all too well lyrics, lyric merch Graphic tees. Available in Plus Size T-Shirt. Back to Design. All Too Well T-Shirt. by ...Taylor Swift Album Shop; Fearless (Taylor’s Version) Shop; Speak Now (Taylor’s Version) Shop; Red (Taylor’s Version) Shop; 1989 (Taylor’s Version) Shop; …Oct 2, 2023 · 1. “Debut” White Mini Dress Taylor Swift Eras Tour Outfit. photo: @the.nurse.sarah When we think of Taylor Swift “Debut” era outfits, the first thing that comes to mind is a flowy white dress — and this mini one is perfect for the Eras Tour! It’s the ultimate dance-ready version of the dress Taylor wears for her debut …Collection Taylor Swift Album Shop is empty. Shop the Official Taylor Swift Online store for exclusive Taylor Swift products including shirts, hoodies, music, accessories, phone cases, tour merchandise and old Taylor merch!From $20.66. Merry Swiftmas - Taylor Swift Christmas Classic T-Shirt. By bombalurina. From $22.16. In My Heart is A Christmas Tree Farm - Taylor Swift Classic T-Shirt. By bombalurina. From $22.16. tis the damn season - Taylor swift fan art Christmas holiday evermore Classic T-Shirt.Taylor Swift Red TV Crochet Pattern (124) $ 5.52. Digital Download Add to Favorites Speak Now Era Hoodie, TaylorSwift Speak Now, TaylorSwift SpeakNow, Speak Now TaylorSwift, SpeakNow, SpeakNow Shirt,Speak Now Swifty,ErasTour ... Long Live t-shirt | Taylor Swift Speak Now shirt | I had the time of my life fighting dragons with you t-shirt Common ...RED. Sorry, there are no products in this collection. © 2024 Taylor Swift Official AU Store. All Rights Reserved. Shop the Official Taylor Swift AU store for exclusive Taylor Swift …Aritzia. Size 2XS-L. See on Aritzia. The camel coat is a Taylor Swift signature, and this belted version from Aritzia features a funnel neck and structured contoured seams. 3. Taylor Swift’s...Shop the Official Taylor Swift Online store for exclusive Taylor Swift products including shirts, hoodies, music, accessories, phone cases, tour merchandise and old Taylor merch!32 products. RUSH Available. 3 to 5 days. T-Shirt Co. You're on your own, kid Softstyle Tee. $19.95 $23.95. RUSH Available. 3 to 5 days. T-Shirt Co. Forever is the sweetest con …Shop Target for taylor swift tshirts you will love at great low prices. Choose from Same Day Delivery, Drive Up or Order Pickup plus free shipping on orders $35+. ... Taylor Swift - Red (Taylor's Version) (4LP) (Target Exclusive, Vinyl) ... taylor swift seagull shirt kids taylor swift shirt light blue t shirts brown t shirt green thermal shirts long white t shirt. … Red (Taylor's Version) Explicit CD. $19.00. Shop the Official Taylor Swift Online store for exclusive Taylor Swift products including shirts, hoodies, music, accessories, phone cases, tour merchandise and old Taylor merch! Taylor Swift by Daisy Villaruel. Check Out This CC. Taylor’s style evolution throughout the years has made many leaps and bounds. But her look from the Red era remains one of my favorites. With ‘60s blunt bangs and long hair, her retro look during the 2010s was a big motivator for me to try it out myself – only to fail miserably. Feb 6, 2024 · Taylor Swift wore a red faux fur coat, and now I want a red faux fur coat. By Rosa Sanchez Published: ... 15 Best Long-Sleeved Shirts for Women. The 15 Best Balconette Bras, Supportive and Sexy.Feb 23, 2023 · From the Taylor’s Version Red era, the red newsboy cap from the album cover is the most iconic outfit. What years does the Red era span? Red was released in 2012 and spans 2012-2013. Taylor re-released Red (Taylor’s Version) including the famed 10-minute version of All Too Well and a short film staring Sadie Sink. Shop the Official Taylor Swift Online store for exclusive Taylor Swift products including shirts, hoodies, music, accessories, phone cases, tour merchandise and old Taylor merch! Album 1989 Taylor Vintage T-shirt, Swift Taylor Inspired Shirt, Swift Taylor Vintage Merch, Taylor Shirt Clip gloss. 5 out of 5 stars "I really loved this shirt! It was a really good quality, and i liked it and it’s a funny shirt. It’s a bit big( Which is fine) so size down but overall a cute shirt" Taylor Rage Feminine Rage Shirt ...Black pants match well with shirts that are brightly colored such as white, red or royal blue. Shirts with bold patterns also look good with black pants. Black is one of the easies...Collection Speak Now (Taylor's Version) Shop is empty. Shop the Official Taylor Swift Online store for exclusive Taylor Swift products including shirts, hoodies, music, accessories, phone cases, tour merchandise and old Taylor merch!Lets Go Taylors Boyfriend, Kansas Shirt, Kansas Taylor Swiftie Shirt, Kansas Football Shirts Womens. 4.6 out of 5 stars 10. 100+ bought in past month. ... Womens Funny Swift Tshirt Go Taylor's Boyfriend Heart Football Kelce Short Sleeve Tshirt Graphic Tee. ... Go Taylors Boyfriend Red Short Sleeve T Shirt. 5.0 out of 5 …These 10 things to do in Nashville with kids prove the city is as family-friendly as can be (assuming your kids like chocolate and Taylor Swift, of course). Appropriately nicknamed...Feb 6, 2024 · Taylor Swift wore a red faux fur coat, and now I want a red faux fur coat. By Rosa Sanchez Published: ... 15 Best Long-Sleeved Shirts for Women. The 15 Best Balconette Bras, Supportive and Sexy. to live for the hope of it all august Taylor Swift folklore Magnet. By maroonlilly. $7.90. Swiftie Tie Dye Watercolor Lover Bucket Hat. By sarascoprox. $23.42. Pathological People Pleaser Sticker. By katymneil. From $1.42. Oct 15, 2021 ... ... shirts, long sleeves, posters, magazines, oven mits, bags, shoes, coasters and so ... RED Guitar Tutorials: https ... All the Taylor Swift Merch I ... Collection 1989 Shop is empty. Shop the Official Taylor Swift Online store for exclusive Taylor Swift products including shirts, hoodies, music, accessories, phone cases, tour merchandise and old Taylor merch! Lavander baby dress/Taylor Swift baby dress costume/Taylor Swift shirt baby dress/sequins baby shirt dress (3.7k) $ 77.00. FREE shipping Add to Favorites ... Taylor inspired red snake shirt concert outfit for Youth, kids crew neck t-shirt (not …Taylor's Version Red Album, Who's Taylor Swift Anyway Tee, Red Shirt, Eras Tour Tshirt, Taylor Swift Concert Outfit, SwiftieMerch, Swift Fan (133) Sale Price $25.20 $ 25.20 $ 38.77 Original Price $38.77 (35% off) Sale ends in 6 hours Add to Favorites ...Jul 5, 2021 · 作词 : Taylor Swift. 作曲 : Taylor Swift. Part Ⅰ. Loving him is like driving a new Maserati down a deed end street 爱他就像是开着一辆崭新的玛莎拉蒂冲进死胡同. Faster than the wind, passionate as sin, ending …November 10, 2021. Photograph by Beth Garrabrant. Originally released in October 2012, Taylor Swift ’s Red album was an instant success, taking us on a romantic rollercoaster from the heart ...Red (Taylor's Version) Shop – Taylor Swift Official Store. Collection Red (Taylor's Version) Shop is empty. Shop the Official Taylor Swift Online store for exclusive Taylor Swift products including shirts, hoodies, …In October 2012, Taylor Swift released Red, her fourth studio album. Nominated for numerous awards, the seven-times platinum-certified album was something of a transitional moment ...Filename E:\own\RED\Taylor Swift - RED (Taylor's Version) {B0034504-02}\CD 2\14 - Taylor Swift - All Too Well (10 minute version) (Taylor’s version) (from The Vault).wav Peak level 100.0 % Extraction speed 4.7 X Track quality 100.0 % Test CRC 1660D752 Copy CRC 1660D752 Track not present in AccurateRip database Copy …Helping people is great, and you can look cool doing it. Ideally, the prospect of saving lives and the personal satisfaction of helping others would be motivation enough to get us ...Collection Outerwear is empty. Shop the Official Taylor Swift Online store for exclusive Taylor Swift products including shirts, hoodies, music, accessories, phone cases, tour merchandise and old Taylor merch!. Shopping. 10 Taylor Swift. Red. Album-Inspired MerMay 9, 2023 · BodyMark by Shop the Official Taylor Swift Online store for exclusive Taylor Swift products including shirts, hoodies, music, accessories, phone cases, tour merchandise and old Taylor … Taylor Swift - Red (Taylor's Version) (4LP) (Target Exclusive, Vin Red Letters On Taylor Swift's Tour T-Shirts May Be Clues For The Next 'Taylor's Version' Album. Celebrity. Taylor Swift’s Eras Tour T-Shirts Might Be Slowly …Filename E:\own\RED\Taylor Swift - RED (Taylor's Version) {B0034504-02}\CD 2\14 - Taylor Swift - All Too Well (10 minute version) (Taylor’s version) (from The Vault).wav Peak level 100.0 % Extraction speed 4.7 X Track quality 100.0 % Test CRC 1660D752 Copy CRC 1660D752 Track not present in AccurateRip database Copy … Rindow Taylor Poster for Wall Art,8 x 12 ...

Continue Reading